Are you the publisher? Claim or contact us about this channel


Embed this content in your HTML

Search

Report adult content:

click to rate:

Account: (login)

More Channels


Showcase


Channel Catalog


Channel Description:

Asia Torrents RSS Feed

older | 1 | .... | 1355 | 1356 | (Page 1357) | 1358 | 1359 | .... | 1405 | newer

    0 0

    Original Post: Let's.Eat.S2.E15.150525.HDTV.XviD-WITH

    http://thetvdb.com/?tab=series&id=275850
    Title: 식샤를 합시다 2 / Siksyareul Habsida 2
    Episodes: 18
    Broadcast period: 2015-Apr-06 to 2015-???-??
    Air time: Monday & Tuesday 23:00
    Original soundtrack: Let's Eat 2 OST


    Synopsis
    Goo Dae young’s rivals have appeared! Food blogger Goo Dae young, the fourth year freelancer, Bae Soo ji on one meal per day diet, who regards him as an enemy, and the vegetarian government worker, Lee Sang Woo. This drama depicts the spicy and tasteful lives of the single dwellers in Sejong Villa, who has each one’s own unique taste

    Cast
    Yoon Doo Joon as Goo Dae Young
    Seo Hyun Jin as Baek Soo Ji
    Kwon Yool as Lee Sang Woo
    Kim Hee Won as Im Taek Soo
    Hwang Seung Eon as Hwang Hye Rim
    Jo Eun Ji as Hong In Ah
    Hwang Suk Jung as Kim Mo Ran
    Lee Joo Seung as mysterious man









    Code
    Video
    ID                                       : 0
    Format                                   : MPEG-4 Visual
    Format profile                           : Advanced Simple@L5
    Format settings, BVOP                    : No
    Format settings, QPel                    : No
    Format settings, GMC                     : No warppoints
    Format settings, Matrix                  : Default (MPEG)
    Codec ID                                 : XVID
    Codec ID/Hint                            : XviD
    Bit rate                                 : 1 391 Kbps
    Width                                    : 624 pixels
    Height                                   : 352 pixels
    Display aspect ratio                     : 16:9
    Frame rate                               : 29.970 fps
    Color space                              : YUV
    Chroma subsampling                       : 4:2:0
    Bit depth                                : 8 bits
    Scan type                                : Progressive
    Compression mode                         : Lossy
    Bits/(Pixel*Frame)                       : 0.211
    Stream size                              : 660 MiB (87%)
    Writing library                          : XviD 1.2.1 (UTC 2008-12-04)

    Audio
    ID                                       : 1
    Format                                   : MPEG Audio
    Format version                           : Version 1
    Format profile                           : Layer 3
    Mode                                     : Joint stereo
    Mode extension                           : MS Stereo
    Codec ID                                 : 55
    Codec ID/Hint                            : MP3
    Bit rate mode                            : Constant
    Bit rate                                 : 128 Kbps
    Channel(s)                               : 2 channels
    Sampling rate                            : 48.0 KHz
    Compression mode                         : Lossy
    Stream size                              : 60.8 MiB (8%)
    Alignment                                : Aligned on interleaves
    Writing library                          : LAME3.98.2



    0 0

    Original Post: Let's.Eat.S2.E15.150525.HDTV.H264.720p-WITH

    http://thetvdb.com/?tab=series&id=275850
    Title: 식샤를 합시다 2 / Siksyareul Habsida 2
    Episodes: 18
    Broadcast period: 2015-Apr-06 to 2015-???-??
    Air time: Monday & Tuesday 23:00
    Original soundtrack: Let's Eat 2 OST


    Synopsis
    Goo Dae young’s rivals have appeared! Food blogger Goo Dae young, the fourth year freelancer, Bae Soo ji on one meal per day diet, who regards him as an enemy, and the vegetarian government worker, Lee Sang Woo. This drama depicts the spicy and tasteful lives of the single dwellers in Sejong Villa, who has each one’s own unique taste

    Cast
    Yoon Doo Joon as Goo Dae Young
    Seo Hyun Jin as Baek Soo Ji
    Kwon Yool as Lee Sang Woo
    Kim Hee Won as Im Taek Soo
    Hwang Seung Eon as Hwang Hye Rim
    Jo Eun Ji as Hong In Ah
    Hwang Suk Jung as Kim Mo Ran
    Lee Joo Seung as mysterious man









    Code
    Video
    ID                                       : 0
    Format                                   : AVC
    Format/Info                              : Advanced Video Codec
    Format profile                           : Baseline@L3.1
    Format settings, CABAC                   : No
    Format settings, ReFrames                : 1 frame
    Codec ID                                 : H264
    Bit rate                                 : 3 017 Kbps
    Width                                    : 1 280 pixels
    Height                                   : 720 pixels
    Display aspect ratio                     : 16:9
    Frame rate mode                          : Variable
    Frame rate                               : 29.970 fps
    Color space                              : YUV
    Chroma subsampling                       : 4:2:0
    Bit depth                                : 8 bits
    Scan type                                : Progressive
    Bits/(Pixel*Frame)                       : 0.109

    Audio
    ID                                       : 1
    Format                                   : MPEG Audio
    Format version                           : Version 1
    Format profile                           : Layer 3
    Mode                                     : Joint stereo
    Mode extension                           : MS Stereo
    Codec ID                                 : 55
    Codec ID/Hint                            : MP3
    Bit rate mode                            : Constant
    Bit rate                                 : 128 Kbps
    Channel(s)                               : 2 channels
    Sampling rate                            : 44.1 KHz
    Compression mode                         : Lossy
    Stream size                              : 62.1 MiB (4%)
    Alignment                                : Aligned on interleaves
    Interleave, duration                     : 26 ms (0.78 video frame)
    Writing library                          : LAME3.98.2



    0 0

    Original Post: Let's.Eat.S2.E16.150526.HDTV.XviD-WITH

    http://thetvdb.com/?tab=series&id=275850
    Title: 식샤를 합시다 2 / Siksyareul Habsida 2
    Episodes: 18
    Broadcast period: 2015-Apr-06 to 2015-???-??
    Air time: Monday & Tuesday 23:00
    Original soundtrack: Let's Eat 2 OST


    Synopsis
    Goo Dae young’s rivals have appeared! Food blogger Goo Dae young, the fourth year freelancer, Bae Soo ji on one meal per day diet, who regards him as an enemy, and the vegetarian government worker, Lee Sang Woo. This drama depicts the spicy and tasteful lives of the single dwellers in Sejong Villa, who has each one’s own unique taste

    Cast
    Yoon Doo Joon as Goo Dae Young
    Seo Hyun Jin as Baek Soo Ji
    Kwon Yool as Lee Sang Woo
    Kim Hee Won as Im Taek Soo
    Hwang Seung Eon as Hwang Hye Rim
    Jo Eun Ji as Hong In Ah
    Hwang Suk Jung as Kim Mo Ran
    Lee Joo Seung as mysterious man









    Code
    Video
    ID                                       : 0
    Format                                   : MPEG-4 Visual
    Format profile                           : Advanced Simple@L5
    Format settings, BVOP                    : No
    Format settings, QPel                    : No
    Format settings, GMC                     : No warppoints
    Format settings, Matrix                  : Default (MPEG)
    Codec ID                                 : XVID
    Codec ID/Hint                            : XviD
    Bit rate                                 : 1 391 Kbps
    Width                                    : 624 pixels
    Height                                   : 352 pixels
    Display aspect ratio                     : 16:9
    Frame rate                               : 29.970 fps
    Color space                              : YUV
    Chroma subsampling                       : 4:2:0
    Bit depth                                : 8 bits
    Scan type                                : Progressive
    Compression mode                         : Lossy
    Bits/(Pixel*Frame)                       : 0.211
    Stream size                              : 660 MiB (87%)
    Writing library                          : XviD 1.2.1 (UTC 2008-12-04)

    Audio
    ID                                       : 1
    Format                                   : MPEG Audio
    Format version                           : Version 1
    Format profile                           : Layer 3
    Mode                                     : Joint stereo
    Mode extension                           : MS Stereo
    Codec ID                                 : 55
    Codec ID/Hint                            : MP3
    Bit rate mode                            : Constant
    Bit rate                                 : 128 Kbps
    Channel(s)                               : 2 channels
    Sampling rate                            : 48.0 KHz
    Compression mode                         : Lossy
    Stream size                              : 60.8 MiB (8%)
    Alignment                                : Aligned on interleaves
    Writing library                          : LAME3.98.2



    0 0

    Original Post: Let's.Eat.S2.E16.150526.HDTV.H264.720p-WITH

    http://thetvdb.com/?tab=series&id=275850
    Title: 식샤를 합시다 2 / Siksyareul Habsida 2
    Episodes: 18
    Broadcast period: 2015-Apr-06 to 2015-???-??
    Air time: Monday & Tuesday 23:00
    Original soundtrack: Let's Eat 2 OST


    Synopsis
    Goo Dae young’s rivals have appeared! Food blogger Goo Dae young, the fourth year freelancer, Bae Soo ji on one meal per day diet, who regards him as an enemy, and the vegetarian government worker, Lee Sang Woo. This drama depicts the spicy and tasteful lives of the single dwellers in Sejong Villa, who has each one’s own unique taste

    Cast
    Yoon Doo Joon as Goo Dae Young
    Seo Hyun Jin as Baek Soo Ji
    Kwon Yool as Lee Sang Woo
    Kim Hee Won as Im Taek Soo
    Hwang Seung Eon as Hwang Hye Rim
    Jo Eun Ji as Hong In Ah
    Hwang Suk Jung as Kim Mo Ran
    Lee Joo Seung as mysterious man









    Code
    Video
    ID                                       : 0
    Format                                   : AVC
    Format/Info                              : Advanced Video Codec
    Format profile                           : Baseline@L3.1
    Format settings, CABAC                   : No
    Format settings, ReFrames                : 1 frame
    Codec ID                                 : H264
    Bit rate                                 : 3 017 Kbps
    Width                                    : 1 280 pixels
    Height                                   : 720 pixels
    Display aspect ratio                     : 16:9
    Frame rate mode                          : Variable
    Frame rate                               : 29.970 fps
    Color space                              : YUV
    Chroma subsampling                       : 4:2:0
    Bit depth                                : 8 bits
    Scan type                                : Progressive
    Bits/(Pixel*Frame)                       : 0.109

    Audio
    ID                                       : 1
    Format                                   : MPEG Audio
    Format version                           : Version 1
    Format profile                           : Layer 3
    Mode                                     : Joint stereo
    Mode extension                           : MS Stereo
    Codec ID                                 : 55
    Codec ID/Hint                            : MP3
    Bit rate mode                            : Constant
    Bit rate                                 : 128 Kbps
    Channel(s)                               : 2 channels
    Sampling rate                            : 44.1 KHz
    Compression mode                         : Lossy
    Stream size                              : 62.1 MiB (4%)
    Alignment                                : Aligned on interleaves
    Interleave, duration                     : 26 ms (0.78 video frame)
    Writing library                          : LAME3.98.2



    0 0

    Original Post: Bluebird's House E29 XVID LIMO

    http://thetvdb.com/?tab=series&id=292405&lid=7
    Details
    Title: 파랑새의 집 / Parangsaeui Jib
    Also known as: Bluebird's Nest
    Genre: Family, human, romance, comedy
    Episodes: 50
    Broadcast network: KBS2
    Broadcast period: 2015-Feb-21 to 2015-???-??
    Air time: Saturday & Sunday Night 19:55
    Original Soundtrack: Bluebird's House OST
    Synopsis
    A drama that tells the story of strong bond between the members of a family even though they are not blood-related. This drama also portrays the hope of parents toward their children's success and how difficult for fresh university graduates to get respectable and well-paid jobs.

    Cast
    Main Cast
    Lee Joon Hyuk as Kim Ji Wan (29)
    Chae Soo Bin as Han Eun Soo (24)
    Lee Sang Yeob as Jang Hyun Do (28)
    Kyung Soo Jin as Kang Young Joo (25)
    Kim Ji Wan's family
    Choi Myung Gil as Han Sun Hee (55)
    Jung Jae Soon as Lee Jin Yi (70)
    Jang Hyun Do's family
    Chun Ho Jin as Jang Tae Soo (55)
    Lee Hye Sook as Jung Soo Kyung (52)
    Kang Young Joo's family
    Song Ok Sook as Oh Min Ja (55)
    Jung Won Joong as Kang Jae Chul (53)
    Others
    Uhm Hyun Kyung as Seo Mi Ji (29)
    Nam Kyung Eup as Shin Young Hwan (50)







    Code
    Video
    ID                                       : 0
    Format                                   : MPEG-4 Visual
    Format profile                           : Advanced Simple@L5
    Format settings, BVOP                    : No
    Format settings, QPel                    : No
    Format settings, GMC                     : No warppoints
    Format settings, Matrix                  : Default (MPEG)
    Codec ID                                 : XVID
    Codec ID/Hint                            : XviD
    Duration                                 : 1h 29mn
    Bit rate                                 : 1 388 Kbps
    Width                                    : 624 pixels
    Height                                   : 352 pixels
    Display aspect ratio                     : 16:9
    Frame rate                               : 29.970 fps
    Color space                              : YUV
    Chroma subsampling                       : 4:2:0
    Bit depth                                : 8 bits
    Scan type                                : Progressive
    Compression mode                         : Lossy
    Bits/(Pixel*Frame)                       : 0.211
    Stream size                              : 886 MiB (87%)
    Writing library                          : XviD 1.2.1 (UTC 2008-12-04)

    Audio
    ID                                       : 1
    Format                                   : MPEG Audio
    Format version                           : Version 1
    Format profile                           : Layer 3
    Mode                                     : Joint stereo
    Mode extension                           : MS Stereo
    Codec ID                                 : 55
    Codec ID/Hint                            : MP3
    Duration                                 : 1h 29mn
    Bit rate mode                            : Constant
    Bit rate                                 : 128 Kbps
    Channel(s)                               : 2 channels
    Sampling rate                            : 48.0 KHz
    Compression mode                         : Lossy
    Stream size                              : 81.7 MiB (8%)
    Alignment                                : Aligned on interleaves
    Writing library                          : LAME3.98.2



    0 0

    Original Post: Bluebird's House E29 720p LIMO

    http://thetvdb.com/?tab=series&id=292405&lid=7
    Details
    Title: 파랑새의 집 / Parangsaeui Jib
    Also known as: Bluebird's Nest
    Genre: Family, human, romance, comedy
    Episodes: 50
    Broadcast network: KBS2
    Broadcast period: 2015-Feb-21 to 2015-???-??
    Air time: Saturday & Sunday Night 19:55
    Original Soundtrack: Bluebird's House OST
    Synopsis
    A drama that tells the story of strong bond between the members of a family even though they are not blood-related. This drama also portrays the hope of parents toward their children's success and how difficult for fresh university graduates to get respectable and well-paid jobs.

    Cast
    Main Cast
    Lee Joon Hyuk as Kim Ji Wan (29)
    Chae Soo Bin as Han Eun Soo (24)
    Lee Sang Yeob as Jang Hyun Do (28)
    Kyung Soo Jin as Kang Young Joo (25)
    Kim Ji Wan's family
    Choi Myung Gil as Han Sun Hee (55)
    Jung Jae Soon as Lee Jin Yi (70)
    Jang Hyun Do's family
    Chun Ho Jin as Jang Tae Soo (55)
    Lee Hye Sook as Jung Soo Kyung (52)
    Kang Young Joo's family
    Song Ok Sook as Oh Min Ja (55)
    Jung Won Joong as Kang Jae Chul (53)
    Others
    Uhm Hyun Kyung as Seo Mi Ji (29)
    Nam Kyung Eup as Shin Young Hwan (50)







    Code
    Video
    ID                             : 1
    Format                         : AVC
    Format/Info                    : Advanced Video Codec
    Format profile                 : High@L5.1
    Format settings, CABAC         : Yes
    Format settings, ReFrames      : 4 frames
    Codec ID                       : V_MPEG4/ISO/AVC
    Duration                       : 1h 24mn
    Bit rate                       : 887 Kbps
    Nominal bit rate               : 2 496 Kbps
    Width                          : 1 280 pixels
    Height                         : 720 pixels
    Display aspect ratio           : 16:9
    Frame rate mode                : Constant
    Frame rate                     : 29.970 fps
    Color space                    : YUV
    Chroma subsampling             : 4:2:0
    Bit depth                      : 8 bits
    Scan type                      : Progressive
    Bits/(Pixel*Frame)             : 0.032
    Stream size                    : 535 MiB (68%)
    Writing library                : x264 core 130 r2273 b3065e6
    Encoding settings              : cabac=1 / ref=3 / deblock=1:0:0 / analyse=0x3:0x113 / me=hex / subme=7 / psy=1 / psy_rd=1.00:0.00 / mixed_ref=1 / me_range=16 / chroma_me=1 / trellis=1 / 8x8dct=1 / cqm=0 / deadzone=21,11 / fast_pskip=1 / chroma_qp_offset=-2 / threads=1 / lookahead_threads=1 / sliced_threads=0 / nr=0 / decimate=1 / interlaced=0 / bluray_compat=0 / constrained_intra=0 / bframes=3 / b_pyramid=2 / b_adapt=1 / b_bias=0 / direct=1 / weightb=1 / open_gop=0 / weightp=2 / keyint=300 / keyint_min=29 / scenecut=40 / intra_refresh=0 / rc_lookahead=40 / rc=2pass / mbtree=1 / bitrate=2496 / ratetol=1.0 / qcomp=0.60 / qpmin=0 / qpmax=69 / qpstep=4 / cplxblur=20.0 / qblur=0.5 / vbv_maxrate=300000 / vbv_bufsize=300000 / nal_hrd=none / ip_ratio=1.40 / aq=1:1.00
    Default                        : Yes
    Forced                         : No

    Audio
    ID                             : 2
    Format                         : AC-3
    Format/Info                    : Audio Coding 3
    Mode extension                 : CM (complete main)
    Format settings, Endianness    : Big
    Codec ID                       : A_AC3
    Duration                       : 1h 24mn
    Bit rate mode                  : Constant
    Bit rate                       : 384 Kbps
    Channel(s)                     : 2 channels
    Channel positions              : Front: L R
    Sampling rate                  : 44.1 KHz
    Bit depth                      : 16 bits
    Compression mode               : Lossy
    Stream size                    : 232 MiB (30%)
    Language                       : Korean
    Default                        : Yes
    Forced                         : No



    0 0

    Original Post: Make A Woman Cry E13 XVID LIMO

    http://thetvdb.com/?tab=series&id=294274&lid=7
    Details
    Title: 여자를 울려 / Yeojareul Woolryeo
    Also known as: Let the Woman Cry
    Genre: Family, drama, romance
    Episodes: 50
    Broadcast network: MBC
    Broadcast period: 2015-Apr-18 to 2015-???-??
    Air time: Saturday & Sunday 20:45
    Original Soundtrack: Make a Woman Cry OST

    Synopsis
    Jung Duk In was a former detective who resigned after her son died. She then opens a food stall in front of her son's school to preserves the memory of him and to protects the other students. Along the way she will struggle to forgive people who were responsible for her son's death.

    Cast

    Main Cast
    Kim Jung Eun as Jung Duk In
    Song Chang Ui as Kang Jin Woo
    Lee Soon Jae as Kang Tae Hwan
    Ha Hee Ra as Na Eun Soo
    Oh Dae Gyu as Kang Jin Myung
    Lee Tae Ran as Choi Hong Ran







    Code
    Video
    ID                                       : 0
    Format                                   : MPEG-4 Visual
    Format profile                           : Advanced Simple@L5
    Format settings, BVOP                    : No
    Format settings, QPel                    : No
    Format settings, GMC                     : No warppoints
    Format settings, Matrix                  : Default (MPEG)
    Codec ID                                 : XVID
    Codec ID/Hint                            : XviD
    Duration                                 : 1h 29mn
    Bit rate                                 : 1 388 Kbps
    Width                                    : 624 pixels
    Height                                   : 352 pixels
    Display aspect ratio                     : 16:9
    Frame rate                               : 29.970 fps
    Color space                              : YUV
    Chroma subsampling                       : 4:2:0
    Bit depth                                : 8 bits
    Scan type                                : Progressive
    Compression mode                         : Lossy
    Bits/(Pixel*Frame)                       : 0.211
    Stream size                              : 886 MiB (87%)
    Writing library                          : XviD 1.2.1 (UTC 2008-12-04)

    Audio
    ID                                       : 1
    Format                                   : MPEG Audio
    Format version                           : Version 1
    Format profile                           : Layer 3
    Mode                                     : Joint stereo
    Mode extension                           : MS Stereo
    Codec ID                                 : 55
    Codec ID/Hint                            : MP3
    Duration                                 : 1h 29mn
    Bit rate mode                            : Constant
    Bit rate                                 : 128 Kbps
    Channel(s)                               : 2 channels
    Sampling rate                            : 48.0 KHz
    Compression mode                         : Lossy
    Stream size                              : 81.7 MiB (8%)
    Alignment                                : Aligned on interleaves
    Writing library                          : LAME3.98.2



    0 0

    Original Post: Make A Woman Cry E13 720p LIMO

    http://thetvdb.com/?tab=series&id=294274&lid=7
    Details
    Title: 여자를 울려 / Yeojareul Woolryeo
    Also known as: Let the Woman Cry
    Genre: Family, drama, romance
    Episodes: 50
    Broadcast network: MBC
    Broadcast period: 2015-Apr-18 to 2015-???-??
    Air time: Saturday & Sunday 20:45
    Original Soundtrack: Make a Woman Cry OST

    Synopsis
    Jung Duk In was a former detective who resigned after her son died. She then opens a food stall in front of her son's school to preserves the memory of him and to protects the other students. Along the way she will struggle to forgive people who were responsible for her son's death.

    Cast

    Main Cast
    Kim Jung Eun as Jung Duk In
    Song Chang Ui as Kang Jin Woo
    Lee Soon Jae as Kang Tae Hwan
    Ha Hee Ra as Na Eun Soo
    Oh Dae Gyu as Kang Jin Myung
    Lee Tae Ran as Choi Hong Ran







    Code
    Video
    ID                             : 1
    Format                         : AVC
    Format/Info                    : Advanced Video Codec
    Format profile                 : High@L5.1
    Format settings, CABAC         : Yes
    Format settings, ReFrames      : 4 frames
    Codec ID                       : V_MPEG4/ISO/AVC
    Duration                       : 1h 24mn
    Bit rate                       : 887 Kbps
    Nominal bit rate               : 2 496 Kbps
    Width                          : 1 280 pixels
    Height                         : 720 pixels
    Display aspect ratio           : 16:9
    Frame rate mode                : Constant
    Frame rate                     : 29.970 fps
    Color space                    : YUV
    Chroma subsampling             : 4:2:0
    Bit depth                      : 8 bits
    Scan type                      : Progressive
    Bits/(Pixel*Frame)             : 0.032
    Stream size                    : 535 MiB (68%)
    Writing library                : x264 core 130 r2273 b3065e6
    Encoding settings              : cabac=1 / ref=3 / deblock=1:0:0 / analyse=0x3:0x113 / me=hex / subme=7 / psy=1 / psy_rd=1.00:0.00 / mixed_ref=1 / me_range=16 / chroma_me=1 / trellis=1 / 8x8dct=1 / cqm=0 / deadzone=21,11 / fast_pskip=1 / chroma_qp_offset=-2 / threads=1 / lookahead_threads=1 / sliced_threads=0 / nr=0 / decimate=1 / interlaced=0 / bluray_compat=0 / constrained_intra=0 / bframes=3 / b_pyramid=2 / b_adapt=1 / b_bias=0 / direct=1 / weightb=1 / open_gop=0 / weightp=2 / keyint=300 / keyint_min=29 / scenecut=40 / intra_refresh=0 / rc_lookahead=40 / rc=2pass / mbtree=1 / bitrate=2496 / ratetol=1.0 / qcomp=0.60 / qpmin=0 / qpmax=69 / qpstep=4 / cplxblur=20.0 / qblur=0.5 / vbv_maxrate=300000 / vbv_bufsize=300000 / nal_hrd=none / ip_ratio=1.40 / aq=1:1.00
    Default                        : Yes
    Forced                         : No

    Audio
    ID                             : 2
    Format                         : AC-3
    Format/Info                    : Audio Coding 3
    Mode extension                 : CM (complete main)
    Format settings, Endianness    : Big
    Codec ID                       : A_AC3
    Duration                       : 1h 24mn
    Bit rate mode                  : Constant
    Bit rate                       : 384 Kbps
    Channel(s)                     : 2 channels
    Channel positions              : Front: L R
    Sampling rate                  : 44.1 KHz
    Bit depth                      : 16 bits
    Compression mode               : Lossy
    Stream size                    : 232 MiB (30%)
    Language                       : Korean
    Default                        : Yes
    Forced                         : No



    0 0

    Original Post: [performance] Crayon Pop ~ live collection from 2012 to 2015 [HDTV][1080p]

    Crayon Pop:http://en.wikipedia.org/wiki/Crayon_Pop

    The collection contains performances in the period from 2012 to 2015: Bar Bar Bar, Bing Bing, Dancing Queen, FM, Lonely Christmas, Saturday Night, Uh-eeand more...

    Special thanks: victorinox, QRI Twong (4sashi.com), kpop24hrs, & jpopsuki.eu.
    The collection contains performances with "Bar Bar Bar" song from previous torrent*:
    Bar Bar Bar

    *See more information:
    Spoiler:show
    The collection is updated (added few performances). Files from the previous collection renamed according to the rule: "[YYMMDD] Name Artist - Song Title (broadcast channel).ext".


    "Bar Bar Bar" collection has been updated & supplemented.

    Screenshots

    Spoiler:show










    MediaInfo

    Spoiler:show


    Code

    General
    File name                      : FM/[150326] Crayon Pop - FM (MCD Mnet M-Countdown).ts
    Format                         : MPEG-TS
    File size                      : 518 MiB
    Duration                       : 3mn 45s
    Overall bit rate mode          : Variable
    Overall bit rate               : 19.2 Mbps

    Video
    ID                             : 17 (0x11)
    Menu ID                        : 1 (0x1)
    Format                         : MPEG Video
    Format version                 : Version 2
    Format profile                 : Main@High
    Format settings, BVOP          : Yes
    Format settings, Matrix        : Default
    Format settings, GOP           : M=3, N=12
    Format settings, picture struc : Frame
    Codec ID                       : 2
    Duration                       : 3mn 45s
    Bit rate mode                  : Variable
    Bit rate                       : 18.0 Mbps
    Maximum bit rate               : 24.0 Mbps
    Width                          : 1 920 pixels
    Height                         : 1 080 pixels
    Display aspect ratio           : 16:9
    Frame rate                     : 29.970 fps
    Color space                    : YUV
    Chroma subsampling             : 4:2:0
    Bit depth                      : 8 bits
    Scan type                      : Interlaced
    Scan order                     : Top Field First
    Compression mode               : Lossy
    Bits/(Pixel*Frame)             : 0.290
    Time code of first frame       : 00:50:07:28
    Time code source               : Group of pictures header
    GOP, Open/Closed               : Open
    Stream size                    : 485 MiB (94%)

    Audio
    ID                             : 20 (0x14)
    Menu ID                        : 1 (0x1)
    Format                         : AC-3
    Format/Info                    : Audio Coding 3
    Mode extension                 : CM (complete main)
    Format settings, Endianness    : Big
    Codec ID                       : 129
    Duration                       : 3mn 45s
    Bit rate mode                  : Constant
    Bit rate                       : 256 Kbps
    Channel(s)                     : 2 channels
    Channel positions              : Front: L R
    Sampling rate                  : 48.0 KHz
    Bit depth                      : 16 bits
    Compression mode               : Lossy
    Delay relative to video        : -644ms
    Stream size                    : 6.89 MiB (1%)




      Available (GMT+3):
    • on weekends and holidays from 9 am to 12 pm.
    • on weekdays from 20 pm to 12 pm.



    0 0

    Original Post: Law of the Jungle with Friends E163 720p WITH (Ep 1 Yap Island)


    Hangul: 정글의 법칙
    Genre: Variety Show
    Language: Korean
    Country: South Korea
    Subtitles: No Subtitles

    Cast:

    Kim Byung-man
    Ryu Dam
    Park Han-byul
    Kangnam
    Ryu Seung-soo
    Lee Jung-jin
    Bae Soo-bin
    Yoon Sang-hyun
    Lee Yi-kyung
    Eun Ji-won
    Jung Jin Woon
    Dasom

    Synopsis:

    Law of the Jungle

    Law of the Jungle (Korean: 정글의 법칙) is a South Korean reality-documentary show on SBS. It was first aired on October 21, 2011. This show is a hybrid of reality-variety television, natural documentaries, and human drama; a new concept of programming.[1] The cast of celebrities travel to primitive, natural places to survive on their own and experience life with local tribes and people.[2] Originally airing at the Friday 11:05 pm KST time slot, the program was switched into Good Sunday for its second season beginning May 6, 2012, airing before Running Man at the 5:00 pm time slot, replacing K-pop Star Season 1.[3] With the return of K-pop Star Season 2 to Good Sunday, the program returned to Friday nights but airing at 10:00 pm instead beginning November 16, 2012.[4] Originally airing as Kim Byung-man's Law of the Jungle (Korean: 김병만의 정글의 법칙) after the creator and "clan leader" Kim Byung-man, "Kim Byung-man's" was dropped from the title beginning in Season 3.

    Special editions of the program air as well featuring a different cast not in the regular time slot. Law of the Jungle W (W for Women) features an all-female cast and generally airs during the Seollal and Chuseok holidays.[5] Law of the Jungle K (K for Kids) features celebrities with their children, and has aired as a Seollal special in 2013.


    Code
    General
    Format                                   : MPEG-4
    Format profile                           : Base Media
    Codec ID                                 : isom
    File size                                : 1.32 GiB
    Duration                                 : 1h 16mn
    Overall bit rate mode                    : Variable
    Overall bit rate                         : 2 472 Kbps

    Video
    ID                                       : 1
    Format                                   : AVC
    Format/Info                              : Advanced Video Codec
    Format profile                           : Baseline@L1.3
    Format settings, CABAC                   : No
    Format settings, ReFrames                : 1 frame
    Codec ID                                 : avc1
    Codec ID/Info                            : Advanced Video Coding
    Duration                                 : 1h 16mn
    Bit rate                                 : 2 200 Kbps
    Maximum bit rate                         : 12.2 Mbps
    Width                                    : 1 280 pixels
    Height                                   : 720 pixels
    Display aspect ratio                     : 16:9
    Frame rate mode                          : Constant
    Frame rate                               : 29.970 fps
    Color space                              : YUV
    Chroma subsampling                       : 4:2:0
    Bit depth                                : 8 bits
    Scan type                                : Progressive
    Bits/(Pixel*Frame)                       : 0.080
    Stream size                              : 1.18 GiB (90%)
    Writing library                          : x264 core 128 r2216 198a7ea
    Encoding settings                        : cabac=0 / ref=1 / deblock=1:0:0 / analyse=0x1:0x111 / me=hex / subme=7 / psy=1 / psy_rd=1.00:0.00 / mixed_ref=0 / me_range=16 / chroma_me=1 / trellis=1 / 8x8dct=0 / cqm=0 / deadzone=21,11 / fast_pskip=1 / chroma_qp_offset=-2 / threads=12 / lookahead_threads=2 / sliced_threads=0 / nr=0 / decimate=1 / interlaced=0 / bluray_compat=0 / constrained_intra=0 / bframes=0 / weightp=0 / keyint=250 / keyint_min=25 / scenecut=40 / intra_refresh=0 / rc_lookahead=40 / rc=abr / mbtree=1 / bitrate=2200 / ratetol=1.0 / qcomp=0.60 / qpmin=0 / qpmax=69 / qpstep=4 / vbv_maxrate=50000 / vbv_bufsize=50000 / nal_hrd=none / ip_ratio=1.40 / aq=1:1.00

    Audio
    ID                                       : 2
    Format                                   : AAC
    Format/Info                              : Advanced Audio Codec
    Format profile                           : LC
    Codec ID                                 : 40
    Duration                                 : 1h 16mn
    Bit rate mode                            : Variable
    Bit rate                                 : 256 Kbps
    Maximum bit rate                         : 263 Kbps
    Channel(s)                               : 2 channels
    Channel positions                        : Front: L R
    Sampling rate                            : 48.0 KHz
    Compression mode                         : Lossy
    Stream size                              : 139 MiB (10%)








    *Please PM me if there is something wrong. If you have the subtitle, please add it smile1.gif

    Don't try to HIT AND RUN. Don't forget to seed minimum at least 1.5..


    0 0

    Original Post: Queen's.Flower.E23.150530.HDTV.XviD-LIMO

    http://thetvdb.com/?tab=series&id=293195
    Details
    Title: 여왕의 꽃 / Yeowangeui Ggot
    Previously known as: 적도의 꽃 (Flower of the Equator)
    Genre: Melodrama
    Episodes: 50
    Broadcast network: MBC
    Broadcast period: 2015-Mar-14 to 2015-???-??
    Air time: Saturday & Sunday 21:55

    Synopsis
    Rena Jung (Kim Sung Ryung) is a beautiful, but ambitious star chef who hosts her own cooking show. Her husband, Park Min-Joon (Lee Jong Hyuk), is the first son of a family that runs a large company. Their relationship is not so good, but they try to show other people they are still in love.

    In the past, Rena Jung abandoned her daughter for a chance at success. Now, her daughter, Kang Yi Sol (Lee Sung Kyung) appears in front of her. Kang Yi Sol resents her mother for abandoning her.

    Park Jae Joon (Yoon Park) is the husband's younger brother. He is popular with women, but he is attracted to Kang Yi-Sol.

    Cast
    Kim Sung Ryung as Rena Jung / Jung Eun Hye
    Lee Sung Kyung as Kang Yi Sol
    Yoon Park as Park Jae Joon
    Lee Jong Hyuk as Park Min Joon







    Code
    Video
    ID                                       : 0
    Format                                   : MPEG-4 Visual
    Format profile                           : Advanced Simple@L5
    Format settings, BVOP                    : No
    Format settings, QPel                    : No
    Format settings, GMC                     : No warppoints
    Format settings, Matrix                  : Default (MPEG)
    Codec ID                                 : XVID
    Codec ID/Hint                            : XviD
    Duration                                 : 1h 29mn
    Bit rate                                 : 1 388 Kbps
    Width                                    : 624 pixels
    Height                                   : 352 pixels
    Display aspect ratio                     : 16:9
    Frame rate                               : 29.970 fps
    Color space                              : YUV
    Chroma subsampling                       : 4:2:0
    Bit depth                                : 8 bits
    Scan type                                : Progressive
    Compression mode                         : Lossy
    Bits/(Pixel*Frame)                       : 0.211
    Stream size                              : 886 MiB (87%)
    Writing library                          : XviD 1.2.1 (UTC 2008-12-04)

    Audio
    ID                                       : 1
    Format                                   : MPEG Audio
    Format version                           : Version 1
    Format profile                           : Layer 3
    Mode                                     : Joint stereo
    Mode extension                           : MS Stereo
    Codec ID                                 : 55
    Codec ID/Hint                            : MP3
    Duration                                 : 1h 29mn
    Bit rate mode                            : Constant
    Bit rate                                 : 128 Kbps
    Channel(s)                               : 2 channels
    Sampling rate                            : 48.0 KHz
    Compression mode                         : Lossy
    Stream size                              : 81.7 MiB (8%)
    Alignment                                : Aligned on interleaves
    Writing library                          : LAME3.98.2



    0 0

    Original Post: Queen's.Flower.E23.150530.HDTV.H264.720p-LIMO

    http://thetvdb.com/?tab=series&id=293195
    Title: 여왕의 꽃 / Yeowangeui Ggot
    Previously known as: 적도의 꽃 (Flower of the Equator)
    Genre: Melodrama
    Episodes: 50
    Broadcast network: MBC
    Broadcast period: 2015-Mar-14 to 2015-???-??
    Air time: Saturday & Sunday 21:55

    Synopsis
    Rena Jung (Kim Sung Ryung) is a beautiful, but ambitious star chef who hosts her own cooking show. Her husband, Park Min-Joon (Lee Jong Hyuk), is the first son of a family that runs a large company. Their relationship is not so good, but they try to show other people they are still in love.

    In the past, Rena Jung abandoned her daughter for a chance at success. Now, her daughter, Kang Yi Sol (Lee Sung Kyung) appears in front of her. Kang Yi Sol resents her mother for abandoning her.

    Park Jae Joon (Yoon Park) is the husband's younger brother. He is popular with women, but he is attracted to Kang Yi-Sol.

    Cast
    Kim Sung Ryung as Rena Jung / Jung Eun Hye
    Lee Sung Kyung as Kang Yi Sol
    Yoon Park as Park Jae Joon
    Lee Jong Hyuk as Park Min Joon







    Code
    Video
    ID                             : 1
    Format                         : AVC
    Format/Info                    : Advanced Video Codec
    Format profile                 : High@L5.1
    Format settings, CABAC         : Yes
    Format settings, ReFrames      : 4 frames
    Codec ID                       : V_MPEG4/ISO/AVC
    Duration                       : 1h 24mn
    Bit rate                       : 887 Kbps
    Nominal bit rate               : 2 496 Kbps
    Width                          : 1 280 pixels
    Height                         : 720 pixels
    Display aspect ratio           : 16:9
    Frame rate mode                : Constant
    Frame rate                     : 29.970 fps
    Color space                    : YUV
    Chroma subsampling             : 4:2:0
    Bit depth                      : 8 bits
    Scan type                      : Progressive
    Bits/(Pixel*Frame)             : 0.032
    Stream size                    : 535 MiB (68%)
    Writing library                : x264 core 130 r2273 b3065e6
    Encoding settings              : cabac=1 / ref=3 / deblock=1:0:0 / analyse=0x3:0x113 / me=hex / subme=7 / psy=1 / psy_rd=1.00:0.00 / mixed_ref=1 / me_range=16 / chroma_me=1 / trellis=1 / 8x8dct=1 / cqm=0 / deadzone=21,11 / fast_pskip=1 / chroma_qp_offset=-2 / threads=1 / lookahead_threads=1 / sliced_threads=0 / nr=0 / decimate=1 / interlaced=0 / bluray_compat=0 / constrained_intra=0 / bframes=3 / b_pyramid=2 / b_adapt=1 / b_bias=0 / direct=1 / weightb=1 / open_gop=0 / weightp=2 / keyint=300 / keyint_min=29 / scenecut=40 / intra_refresh=0 / rc_lookahead=40 / rc=2pass / mbtree=1 / bitrate=2496 / ratetol=1.0 / qcomp=0.60 / qpmin=0 / qpmax=69 / qpstep=4 / cplxblur=20.0 / qblur=0.5 / vbv_maxrate=300000 / vbv_bufsize=300000 / nal_hrd=none / ip_ratio=1.40 / aq=1:1.00
    Default                        : Yes
    Forced                         : No

    Audio
    ID                             : 2
    Format                         : AC-3
    Format/Info                    : Audio Coding 3
    Mode extension                 : CM (complete main)
    Format settings, Endianness    : Big
    Codec ID                       : A_AC3
    Duration                       : 1h 24mn
    Bit rate mode                  : Constant
    Bit rate                       : 384 Kbps
    Channel(s)                     : 2 channels
    Channel positions              : Front: L R
    Sampling rate                  : 44.1 KHz
    Bit depth                      : 16 bits
    Compression mode               : Lossy
    Stream size                    : 232 MiB (30%)
    Language                       : Korean
    Default                        : Yes
    Forced                         : No



    0 0

    Original Post: Divorce.Lawyer.In.Love.E13.150530.HDTV.XviD-LIMO

    http://thetvdb.com/?tab=series&id=293864&lid=7
    Details
    Title: 이혼변호사는 연애중 / Yihonbyunhosaneun Yeonaejoong
    Genre: Romance, comedy
    Episodes: 16
    Broadcast network: SBS
    Broadcast period: 2015-Apr-18 to 2015-TBA
    Air time: Saturday & Sunday 22:00
    Original Soundtrack: Divorce Lawyer in Love OST
    Synopsis
    Go Cheok Hee is a successful divorce lawyer who treated So Jung Woo terribly when he was her firm's office manager. The tables are turned when Cheok Hee loses her license and can no longer practice law and Jung Woo has become a successful lawyer. The two cross paths again when Cheok Hee becomes Jung Woo's office manager.

    Cast
    Jo Yeo Jung as Go Cheok Hee
    Lee Bit Na as young Go Cheok Hee
    Yun Woo Jin as So Jung Woo
    Shim Hyung Tak as Bong Min Kyu
    Wang Ji Won as Jo Soo Ah







    Code
    Video
    ID                                       : 0
    Format                                   : MPEG-4 Visual
    Format profile                           : Advanced Simple@L5
    Format settings, BVOP                    : No
    Format settings, QPel                    : No
    Format settings, GMC                     : No warppoints
    Format settings, Matrix                  : Default (MPEG)
    Codec ID                                 : XVID
    Codec ID/Hint                            : XviD
    Duration                                 : 1h 29mn
    Bit rate                                 : 1 388 Kbps
    Width                                    : 624 pixels
    Height                                   : 352 pixels
    Display aspect ratio                     : 16:9
    Frame rate                               : 29.970 fps
    Color space                              : YUV
    Chroma subsampling                       : 4:2:0
    Bit depth                                : 8 bits
    Scan type                                : Progressive
    Compression mode                         : Lossy
    Bits/(Pixel*Frame)                       : 0.211
    Stream size                              : 886 MiB (87%)
    Writing library                          : XviD 1.2.1 (UTC 2008-12-04)

    Audio
    ID                                       : 1
    Format                                   : MPEG Audio
    Format version                           : Version 1
    Format profile                           : Layer 3
    Mode                                     : Joint stereo
    Mode extension                           : MS Stereo
    Codec ID                                 : 55
    Codec ID/Hint                            : MP3
    Duration                                 : 1h 29mn
    Bit rate mode                            : Constant
    Bit rate                                 : 128 Kbps
    Channel(s)                               : 2 channels
    Sampling rate                            : 48.0 KHz
    Compression mode                         : Lossy
    Stream size                              : 81.7 MiB (8%)
    Alignment                                : Aligned on interleaves
    Writing library                          : LAME3.98.2



    0 0

    Original Post: Divorce.Lawyer.In.Love.E13.150530.HDTV.H264.720p-LIMO

    http://thetvdb.com/?tab=series&id=293864&lid=7
    Details
    Title: 이혼변호사는 연애중 / Yihonbyunhosaneun Yeonaejoong
    Genre: Romance, comedy
    Episodes: 16
    Broadcast network: SBS
    Broadcast period: 2015-Apr-18 to 2015-TBA
    Air time: Saturday & Sunday 22:00
    Original Soundtrack: Divorce Lawyer in Love OST
    Synopsis
    Go Cheok Hee is a successful divorce lawyer who treated So Jung Woo terribly when he was her firm's office manager. The tables are turned when Cheok Hee loses her license and can no longer practice law and Jung Woo has become a successful lawyer. The two cross paths again when Cheok Hee becomes Jung Woo's office manager.

    Cast
    Jo Yeo Jung as Go Cheok Hee
    Lee Bit Na as young Go Cheok Hee
    Yun Woo Jin as So Jung Woo
    Shim Hyung Tak as Bong Min Kyu
    Wang Ji Won as Jo Soo Ah







    Code
    Video
    ID                             : 1
    Format                         : AVC
    Format/Info                    : Advanced Video Codec
    Format profile                 : High@L5.1
    Format settings, CABAC         : Yes
    Format settings, ReFrames      : 4 frames
    Codec ID                       : V_MPEG4/ISO/AVC
    Duration                       : 1h 24mn
    Bit rate                       : 887 Kbps
    Nominal bit rate               : 2 496 Kbps
    Width                          : 1 280 pixels
    Height                         : 720 pixels
    Display aspect ratio           : 16:9
    Frame rate mode                : Constant
    Frame rate                     : 29.970 fps
    Color space                    : YUV
    Chroma subsampling             : 4:2:0
    Bit depth                      : 8 bits
    Scan type                      : Progressive
    Bits/(Pixel*Frame)             : 0.032
    Stream size                    : 535 MiB (68%)
    Writing library                : x264 core 130 r2273 b3065e6
    Encoding settings              : cabac=1 / ref=3 / deblock=1:0:0 / analyse=0x3:0x113 / me=hex / subme=7 / psy=1 / psy_rd=1.00:0.00 / mixed_ref=1 / me_range=16 / chroma_me=1 / trellis=1 / 8x8dct=1 / cqm=0 / deadzone=21,11 / fast_pskip=1 / chroma_qp_offset=-2 / threads=1 / lookahead_threads=1 / sliced_threads=0 / nr=0 / decimate=1 / interlaced=0 / bluray_compat=0 / constrained_intra=0 / bframes=3 / b_pyramid=2 / b_adapt=1 / b_bias=0 / direct=1 / weightb=1 / open_gop=0 / weightp=2 / keyint=300 / keyint_min=29 / scenecut=40 / intra_refresh=0 / rc_lookahead=40 / rc=2pass / mbtree=1 / bitrate=2496 / ratetol=1.0 / qcomp=0.60 / qpmin=0 / qpmax=69 / qpstep=4 / cplxblur=20.0 / qblur=0.5 / vbv_maxrate=300000 / vbv_bufsize=300000 / nal_hrd=none / ip_ratio=1.40 / aq=1:1.00
    Default                        : Yes
    Forced                         : No

    Audio
    ID                             : 2
    Format                         : AC-3
    Format/Info                    : Audio Coding 3
    Mode extension                 : CM (complete main)
    Format settings, Endianness    : Big
    Codec ID                       : A_AC3
    Duration                       : 1h 24mn
    Bit rate mode                  : Constant
    Bit rate                       : 384 Kbps
    Channel(s)                     : 2 channels
    Channel positions              : Front: L R
    Sampling rate                  : 44.1 KHz
    Bit depth                      : 16 bits
    Compression mode               : Lossy
    Stream size                    : 232 MiB (30%)
    Language                       : Korean
    Default                        : Yes
    Forced                         : No



    0 0

    Original Post: Producer.E06.150530.HDTV.X264-LIMO

    http://thetvdb.com/?tab=series&id=294814
    Details
    Title: 프로듀사 / Peurodyusa
    Genre: Drama
    Episodes: 12
    Broadcast network: KBS2
    Broadcast period: 2015-May-15 to 2015-Jun-20
    Air time: Friday & Saturday 21:15
    Original Soundtrack: Producer OST

    Synopsis
    A group of young television producers — Ra Jun Mo (Cha Tae Hyun), Baek Sung Chan (Kim Soo Hyun), Tak Ye Ji (Gong Hyo Jin), and Cindy (IU) — work tirelessly around the clock within the entertainment division of a major broadcasting network. Amidst their dynamic and challenging workloads, serious drama reaches new heights in this backstage glimpse of the people who make television magic happen.

    Main Cast
    Cha Tae Hyun as Ra Joon Mo (35, 2 Days & 1 Night's PD)
    Kim Soo Hyun as Baek Seung Chan (27, KBS Entertainment World newbie PD)
    Gong Hyo Jin as Tak Ye Jin (35, Music Bank's PD)
    IU as Cindy (23, singer)

    NOTE: All screenshots were randomly selected









    Code
    Video
    ID                             : 1
    Format                         : AVC
    Format/Info                    : Advanced Video Codec
    Format profile                 : Main@L4.0
    Format settings, CABAC         : Yes
    Format settings, ReFrames      : 4 frames
    Codec ID                       : V_MPEG4/ISO/AVC
    Duration                       : 58mn 44s
    Bit rate                       : 450 Kbps
    Width                          : 624 pixels
    Height                         : 350 pixels
    Display aspect ratio           : 16:9
    Frame rate mode                : Constant
    Frame rate                     : 29.970 fps
    Color space                    : YUV
    Chroma subsampling             : 4:2:0
    Bit depth                      : 8 bits
    Scan type                      : Progressive
    Bits/(Pixel*Frame)             : 0.069
    Stream size                    : 190 MiB (76%)
    Writing library                : x264 core 130 r2273 b3065e6
    Encoding settings              : cabac=1 / ref=1 / deblock=1:0:0 / analyse=0x1:0x111 / me=hex / subme=2 / psy=1 / psy_rd=1.00:0.00 / mixed_ref=0 / me_range=16 / chroma_me=1 / trellis=0 / 8x8dct=0 / cqm=0 / deadzone=21,11 / fast_pskip=1 / chroma_qp_offset=0 / threads=1 / lookahead_threads=1 / sliced_threads=0 / nr=0 / decimate=1 / interlaced=0 / bluray_compat=0 / constrained_intra=0 / bframes=3 / b_pyramid=2 / b_adapt=1 / b_bias=0 / direct=1 / weightb=1 / open_gop=0 / weightp=1 / keyint=300 / keyint_min=30 / scenecut=40 / intra_refresh=0 / rc_lookahead=10 / rc=abr / mbtree=1 / bitrate=450 / ratetol=1.0 / qcomp=0.60 / qpmin=0 / qpmax=69 / qpstep=4 / vbv_maxrate=20000 / vbv_bufsize=25000 / nal_hrd=none / ip_ratio=1.40 / aq=1:1.00
    Language                       : English
    Default                        : Yes
    Forced                         : No
    Color primaries                : BT.601 NTSC
    Transfer characteristics       : BT.709
    Matrix coefficients            : BT.601

    Audio
    ID                             : 2
    Format                         : MPEG Audio
    Format version                 : Version 1
    Format profile                 : Layer 3
    Mode                           : Joint stereo
    Mode extension                 : MS Stereo
    Codec ID                       : A_MPEG/L3
    Codec ID/Hint                  : MP3
    Duration                       : 58mn 44s
    Bit rate mode                  : Constant
    Bit rate                       : 128 Kbps
    Channel(s)                     : 2 channels
    Sampling rate                  : 48.0 KHz
    Compression mode               : Lossy
    Stream size                    : 53.8 MiB (22%)
    Default                        : Yes
    Forced                         : No



    0 0

    Original Post: Producer.E06.150530.HDTV.H264.450p-LIMO

    http://thetvdb.com/?tab=series&id=294814
    Details
    Title: 프로듀사 / Peurodyusa
    Genre: Drama
    Episodes: 12
    Broadcast network: KBS2
    Broadcast period: 2015-May-15 to 2015-Jun-20
    Air time: Friday & Saturday 21:15
    Original Soundtrack: Producer OST

    Synopsis
    A group of young television producers — Ra Jun Mo (Cha Tae Hyun), Baek Sung Chan (Kim Soo Hyun), Tak Ye Ji (Gong Hyo Jin), and Cindy (IU) — work tirelessly around the clock within the entertainment division of a major broadcasting network. Amidst their dynamic and challenging workloads, serious drama reaches new heights in this backstage glimpse of the people who make television magic happen.

    Main Cast
    Cha Tae Hyun as Ra Joon Mo (35, 2 Days & 1 Night's PD)
    Kim Soo Hyun as Baek Seung Chan (27, KBS Entertainment World newbie PD)
    Gong Hyo Jin as Tak Ye Jin (35, Music Bank's PD)
    IU as Cindy (23, singer)

    NOTE: All screenshots were randomly selected








    Code
    Video
    ID                               : 0
    Format                           : AVC
    Format/Info                      : Advanced Video Codec
    Format profile                   : High@L5.1
    Format settings, CABAC           : Yes
    Format settings, ReFrames        : 4 frames
    Codec ID                         : H264
    Duration                         : 1h 4mn
    Bit rate                         : 3 000 Kbps
    Width                            : 1 280 pixels
    Height                           : 720 pixels
    Display aspect ratio             : 16:9
    Frame rate mode                  : Variable
    Frame rate                       : 29.970 fps
    Color space                      : YUV
    Chroma subsampling               : 4:2:0
    Bit depth                        : 8 bits
    Scan type                        : Progressive
    Bits/(Pixel*Frame)               : 0.109
    Stream size                      : 1.35 GiB (94%)
    Writing library                  : x264 core 112
    Encoding settings                : cabac=1 / ref=3 / deblock=1:-1:-1 / analyse=0x3:0x113 / me=hex / subme=6 / psy=1 / psy_rd=1.00:1.00 / mixed_ref=1 / me_range=16 / chroma_me=1 / trellis=1 / 8x8dct=1 / cqm=0 / deadzone=21,11 / fast_pskip=0 / chroma_qp_offset=-4 / threads=12 / sliced_threads=0 / nr=0 / decimate=1 / interlaced=0 / constrained_intra=0 / bframes=3 / b_pyramid=2 / b_adapt=1 / b_bias=1 / direct=3 / weightb=1 / open_gop=0 / weightp=2 / keyint=299 / keyint_min=25 / scenecut=1 / intra_refresh=0 / rc_lookahead=40 / rc=abr / mbtree=1 / bitrate=3000 / ratetol=1.0 / qcomp=0.60 / qpmin=10 / qpmax=51 / qpstep=4 / ip_ratio=1.40 / aq=1:1.00

    Audio
    ID                               : 1
    Format                           : MPEG Audio
    Format version                   : Version 1
    Format profile                   : Layer 3
    Mode                             : Joint stereo
    Mode extension                   : MS Stereo
    Codec ID                         : 55
    Codec ID/Hint                    : MP3
    Duration                         : 1h 4mn
    Bit rate mode                    : Constant
    Bit rate                         : 192 Kbps
    Channel(s)                       : 2 channels
    Sampling rate                    : 48.0 KHz
    Stream size                      : 88.0 MiB (6%)
    Alignment                        : Split accross interleaves
    Interleave, duration             : 33 ms (1.00 video frame)
    Interleave, preload duration     : 500 ms
    Writing library                  : LAME3.98.2



    0 0

    Original Post: Producer.E06.150530.HDTV.H264.720p-LIMO

    http://thetvdb.com/?tab=series&id=294814
    Details
    Title: 프로듀사 / Peurodyusa
    Genre: Drama
    Episodes: 12
    Broadcast network: KBS2
    Broadcast period: 2015-May-15 to 2015-Jun-20
    Air time: Friday & Saturday 21:15
    Original Soundtrack: Producer OST

    Synopsis
    A group of young television producers — Ra Jun Mo (Cha Tae Hyun), Baek Sung Chan (Kim Soo Hyun), Tak Ye Ji (Gong Hyo Jin), and Cindy (IU) — work tirelessly around the clock within the entertainment division of a major broadcasting network. Amidst their dynamic and challenging workloads, serious drama reaches new heights in this backstage glimpse of the people who make television magic happen.

    Main Cast
    Cha Tae Hyun as Ra Joon Mo (35, 2 Days & 1 Night's PD)
    Kim Soo Hyun as Baek Seung Chan (27, KBS Entertainment World newbie PD)
    Gong Hyo Jin as Tak Ye Jin (35, Music Bank's PD)
    IU as Cindy (23, singer)

    NOTE: All screenshots were randomly selected









    Code
    Video
    ID                               : 0
    Format                           : AVC
    Format/Info                      : Advanced Video Codec
    Format profile                   : High@L5.1
    Format settings, CABAC           : Yes
    Format settings, ReFrames        : 4 frames
    Codec ID                         : H264
    Duration                         : 1h 4mn
    Bit rate                         : 3 000 Kbps
    Width                            : 1 280 pixels
    Height                           : 720 pixels
    Display aspect ratio             : 16:9
    Frame rate mode                  : Variable
    Frame rate                       : 29.970 fps
    Color space                      : YUV
    Chroma subsampling               : 4:2:0
    Bit depth                        : 8 bits
    Scan type                        : Progressive
    Bits/(Pixel*Frame)               : 0.109
    Stream size                      : 1.35 GiB (94%)
    Writing library                  : x264 core 112
    Encoding settings                : cabac=1 / ref=3 / deblock=1:-1:-1 / analyse=0x3:0x113 / me=hex / subme=6 / psy=1 / psy_rd=1.00:1.00 / mixed_ref=1 / me_range=16 / chroma_me=1 / trellis=1 / 8x8dct=1 / cqm=0 / deadzone=21,11 / fast_pskip=0 / chroma_qp_offset=-4 / threads=12 / sliced_threads=0 / nr=0 / decimate=1 / interlaced=0 / constrained_intra=0 / bframes=3 / b_pyramid=2 / b_adapt=1 / b_bias=1 / direct=3 / weightb=1 / open_gop=0 / weightp=2 / keyint=299 / keyint_min=25 / scenecut=1 / intra_refresh=0 / rc_lookahead=40 / rc=abr / mbtree=1 / bitrate=3000 / ratetol=1.0 / qcomp=0.60 / qpmin=10 / qpmax=51 / qpstep=4 / ip_ratio=1.40 / aq=1:1.00

    Audio
    ID                               : 1
    Format                           : MPEG Audio
    Format version                   : Version 1
    Format profile                   : Layer 3
    Mode                             : Joint stereo
    Mode extension                   : MS Stereo
    Codec ID                         : 55
    Codec ID/Hint                    : MP3
    Duration                         : 1h 4mn
    Bit rate mode                    : Constant
    Bit rate                         : 192 Kbps
    Channel(s)                       : 2 channels
    Sampling rate                    : 48.0 KHz
    Stream size                      : 88.0 MiB (6%)
    Alignment                        : Split accross interleaves
    Interleave, duration             : 33 ms (1.00 video frame)
    Interleave, preload duration     : 500 ms
    Writing library                  : LAME3.98.2



    0 0

    Original Post: Eye in the Sky (2007) DVDrip x264 AC3



    Title: Eye in the Sky
    AKA: Gun chung
    Original: 跟蹤
    Director: Yau Nai-Hoi
    Release Date: 21 June 2007
    Runtime: 90 min.
    Genre: Crime, Thriller, Action
    Language: Cantonese
    Country: Hong Kong
    Subtitles: English
    Source: DVD9 uploaded by plextor to ADC
    IMDB URL: http://www.imdb.com/title/tt0901488

    Cast: Tony Leung Ka-Fai, Simon Yam Tat-Wah, Kate Tsui Tsz-Shan, Lam Suet, Maggie Siu Mei-Kei, Eddie Cheung Siu-Fai, Lai Yiu-Cheung, Berg Ng Ting-Yip, Samuel Pang King-Chi, Wong Wah-Ho

    Synopsis from LoveHKfilm: A group of Milkyway regulars (Simon Yam, Tony Leung Ka-Fai, Maggie Siu, Lam Suet, Eddie Cheung) welcomes a newcomer to their ranks: TVB star Kate Tsui, who plays Bo, a neophyte cop looking to join the ranks of the SU (Surveillance Unit), Hong Kong's own dedicated surveillance squad. We first meet her during an attention-grabbing opening sequence as she tails SU leader Wong Man-Chin (Simon Yam, who gained twenty pounds for his cop-with-a-gut role), who goes by the codename Dog Head. Or is she really tailing criminal mastermind Shan (Tony Leung Ka-Fai), who crosses paths with Dog Head and Bo while staking out the location of his latest jewelry heist?



















    Mediainfo :
    Format                                   : Matroska
    Format version                           : Version 2
    File size                                : 1.72 GiB
    Duration                                 : 1h 29mn
    Overall bit rate                         : 2 750 Kbps
    Writing application                      : HandBrake 0.10.1 2015030800
    Writing library                          : Lavf55.12.0

    Video
    ID                                       : 1
    Format                                   : AVC
    Format/Info                              : Advanced Video Codec
    Format profile                           : High@L3.2
    Format settings, CABAC                   : Yes
    Format settings, ReFrames                : 16 frames
    Codec ID                                 : V_MPEG4/ISO/AVC
    Duration                                 : 1h 29mn
    Bit rate                                 : 2 311 Kbps
    Width                                    : 714 pixels
    Height                                   : 402 pixels
    Display aspect ratio                     : 16:9
    Frame rate mode                          : Constant
    Frame rate                               : 23.976 fps
    Color space                              : YUV
    Chroma subsampling                       : 4:2:0
    Bit depth                                : 8 bits
    Scan type                                : Progressive
    Bits/(Pixel*Frame)                       : 0.336
    Stream size                              : 1.45 GiB (84%)
    Writing library                          : x264 core 142 r2479 dd79a61
    Encoding settings                        : cabac=1 / ref=16 / deblock=1:0:0 / analyse=0x3:0x133 / me=umh / subme=10 / psy=1 / psy_rd=1.00:0.00 / mixed_ref=1 / me_range=24 / chroma_me=1 / trellis=2 / 8x8dct=1 / cqm=0 / deadzone=21,11 / fast_pskip=1 / chroma_qp_offset=-2 / threads=6 / lookahead_threads=1 / sliced_threads=0 / nr=0 / decimate=1 / interlaced=0 / bluray_compat=0 / constrained_intra=0 / bframes=8 / b_pyramid=2 / b_adapt=2 / b_bias=0 / direct=3 / weightb=1 / open_gop=0 / weightp=2 / keyint=240 / keyint_min=24 / scenecut=40 / intra_refresh=0 / rc_lookahead=60 / rc=crf / mbtree=1 / crf=17.0 / qcomp=0.60 / qpmin=0 / qpmax=69 / qpstep=4 / ip_ratio=1.40 / aq=1:1.00
    Default                                  : Yes
    Forced                                   : No
    Color primaries                          : BT.601 NTSC
    Transfer characteristics                 : BT.709
    Matrix coefficients                      : BT.601
    Color range                              : Limited

    Audio
    ID                                       : 2
    Format                                   : AC-3
    Format/Info                              : Audio Coding 3
    Mode extension                           : CM (complete main)
    Format settings, Endianness              : Big
    Codec ID                                 : A_AC3
    Duration                                 : 1h 29mn
    Bit rate mode                            : Constant
    Bit rate                                 : 384 Kbps
    Channel(s)                               : 6 channels
    Channel positions                        : Front: L C R, Side: L R, LFE
    Sampling rate                            : 48.0 KHz
    Bit depth                                : 16 bits
    Compression mode                         : Lossy
    Stream size                              : 246 MiB (14%)
    Title                                    : Surround
    Language                                 : Chinese
    Default                                  : Yes
    Forced                                   : No



    0 0

    Original Post: Koko Ni Aru Shiawase SP 2015 720p HDTV x265 AAC ER



    Title (romaji):  koko ni Aru Shiawase / ここにある幸せ
    Format: Tanpatsu
    Genre: Drama
    Episodes: 1
    Network: NHK
    Release Date:  19:30, January 16, 2015
    Language: Japanese
    Subtitles: English Samshikmomo @d-addict

    Synopsis
    Hiroyuki Tachikawa (Shota Matsuda) is 28-years-old. He quits his job due to severe quotas and difficult relations. His girlfriend, Chieko Takanashi (Eriko Nakamura), also kicks him out. Hiroyuki Tachikawa then decides to go to the small port city of Tsuyazaki in Fukuoka Prefecture. He meets a 72-year-old woman, Fukuko Hanada (Nobuko Miyamoto), there. Fukuko Hanada doesn't know why, but she likes Hiroyuki Tachikawa and takes him to different places. Hiroyuki Tachikawa soon picks up on the meaning of happiness.

    Cast
    Shota Matsuda - Hiroyuki Tachikawa
    Nobuko Miyamoto - Fukuko Hanada
    Eriko Nakamura - Chieko Takanashi

    Media Info:
    Spoiler:show
    Format                                   : Matroska
    Format version                           : Version 4 / Version 2
    File size                                : 264 MiB
    Duration                                 : 59mn 0s
    Overall bit rate                         : 626 Kbps
    Encoded date                             : UTC 2015-04-28 06:43:44
    Writing application                      : mkvmerge v7.7.0 ('Six Voices') 64bit built on Feb 28 2015 23:39:33
    Writing library                          : ┐(^▂ ^;)┌
    COPYRIGHT                                : TDDcrew™
    Encoded by                               : ER
    DURATION                                 : 00:58:59.975000000
    NUMBER_OF_FRAMES                         : 152454
    NUMBER_OF_BYTES                          : 29121733
    _STATISTICS_WRITING_APP                  : mkvmerge v7.7.0 ('Six Voices') 64bit built on Feb 28 2015 23:39:33
    _STATISTICS_WRITING_DATE_UTC             : 2015-04-28 06:43:44
    _STATISTICS_TAGS                         : BPS DURATION NUMBER_OF_FRAMES NUMBER_OF_BYTES

    Video
    ID                                       : 2
    Format                                   : V_MPEGH/ISO/HEVC
    Codec ID                                 : V_MPEGH/ISO/HEVC
    Duration                                 : 59mn 0s
    Width                                    : 1 280 pixels
    Height                                   : 720 pixels
    Display aspect ratio                     : 16:9
    Frame rate mode                          : Constant
    Frame rate                               : 29.970 fps
    Title                                    : ER
    Language                                 : Japanese
    Default                                  : Yes
    Forced                                   : No

    Audio
    ID                                       : 1
    Format                                   : AAC
    Format/Info                              : Advanced Audio Codec
    Format profile                           : LC
    Codec ID                                 : A_AAC
    Duration                                 : 59mn 0s
    Channel(s)                               : 2 channels
    Channel positions                        : Front: L R
    Sampling rate                            : 44.1 KHz
    Compression mode                         : Lossy
    Title                                    : ER
    Language                                 : Japanese
    Default                                  : Yes
    Forced                                   : No






    0 0

    Original Post: Run Brother S02 EP07 HDTV 720P X264 [Mandarin Hard Sub]

    [Season 02]

                                                                                           

    Chinese title: 奔跑吧兄弟 / Bēnpǎo ba xiōngdì Season 02
    English title: Run Brother Season 02
    Genre: Variety
    Production Company: Zhejiang Satellite TV & SBS
    Official Broadcast Date: April 17, 2015
    Broadcast Days: Fridays
    Related Show: Running Man
    Episode: 7 / 12
    Country: China
    Language: Mandarin
    Subtitles: Mandarin Hardsubs
    English Subtitles: None atm


    click here Run Brother + Special Episode (2014) [Season 01 Complete]

    http://thetvdb.com/?tab=series&id=287357&lid=7
    click here wikipedia

    Synopsis
    The chinese version of the popular Korean variety show Running Man. They invite guests to compete in a race with different challenges to crown a winner.

    Hosts






    Code
    Complete name               : Run Brother.奔跑吧兄弟.第二季.S02E07.HD720P.X264.AAC.Mandarin.CHS.Mp4Ba.mp4
    Format                      : MPEG-4
    Format profile              : Base Media
    Codec ID                    : isom
    File size                   : 2.40 GiB
    Duration                    : 1h 47mn
    Overall bit rate mode       : Variable
    Overall bit rate            : 3 179 Kbps
    Encoded date                : UTC 2015-05-29 10:45:04
    Tagged date                 : UTC 2015-05-29 10:45:04

    Video
    ID                          : 1
    Format                      : AVC
    Format/Info                 : Advanced Video Codec
    Format profile              : High@L4.1
    Format settings, CABAC      : Yes
    Format settings, ReFrames   : 5 frames
    Codec ID                    : avc1
    Codec ID/Info               : Advanced Video Coding
    Duration                    : 1h 47mn
    Bit rate                    : 3 000 Kbps
    Maximum bit rate            : 18.8 Mbps
    Width                       : 1 280 pixels
    Height                      : 720 pixels
    Display aspect ratio        : 16:9
    Frame rate mode             : Constant
    Frame rate                  : 25.000 fps
    Color space                 : YUV
    Chroma subsampling          : 4:2:0
    Bit depth                   : 8 bits
    Scan type                   : Progressive
    Bits/(Pixel*Frame)          : 0.130
    Stream size                 : 2.25 GiB (94%)
    Writing library             : x264 core 142 r2431+42 c69a006 tMod [8-bit@all X86_64]
    Encoding settings           : cabac=1 / ref=5 / deblock=1:-2:-2 / analyse=0x3:0x133 / me=umh / subme=7 / psy=1 / fade_compensate=0.00 / psy_rd=1.10:0.00 / mixed_ref=1 / me_range=16 / chroma_me=1 / trellis=1 / 8x8dct=1 / cqm=0 / deadzone=21,11 / fast_pskip=0 / chroma_qp_offset=-2 / threads=12 / lookahead_threads=2 / sliced_threads=0 / nr=0 / decimate=0 / interlaced=0 / bluray_compat=0 / constrained_intra=0 / fgo=0 / bframes=3 / b_pyramid=2 / b_adapt=2 / b_bias=0 / direct=3 / weightb=1 / open_gop=0 / weightp=2 / keyint=240 / keyint_min=24 / scenecut=40 / intra_refresh=0 / rc_lookahead=120 / rc=abr / mbtree=1 / bitrate=3000 / ratetol=1.0 / qcomp=0.70 / qpmin=0:0:0 / qpmax=69:69:69 / qpstep=4 / ip_ratio=1.10 / aq=1:0.90 / aq-sensitivity=10.00 / aq-factor=1.00:1.00:1.00 / aq2=0 / aq3=0
    Encoded date                : UTC 2015-05-29 10:45:04
    Tagged date                 : UTC 2015-05-29 10:46:51

    Audio
    ID                          : 2
    Format                      : AAC
    Format/Info                 : Advanced Audio Codec
    Format profile              : LC
    Codec ID                    : 40
    Duration                    : 1h 47mn
    Bit rate mode               : Variable
    Bit rate                    : 192 Kbps
    Maximum bit rate            : 262 Kbps
    Channel(s)                  : 2 channels
    Channel positions           : Front: L R
    Sampling rate               : 48.0 KHz
    Compression mode            : Lossy
    Stream size                 : 148 MiB (6%)
    Encoded date                : UTC 2015-05-29 10:46:24
    Tagged date                 : UTC 2015-05-29 10:46:51











older | 1 | .... | 1355 | 1356 | (Page 1357) | 1358 | 1359 | .... | 1405 | newer